What's new
Welcome

Join us now to get access to all our features. Once registered and logged in, you will be able to create topics, post replies to existing threads, give reputation to your fellow members, get your own private messenger, and so, so much more. It's also quick and totally free, so what are you waiting for?

720p Rip Vinashak.1998.720p.DVD.Rip.X264.AC-3.5.1 [DrC]

Joined
Nov 4, 2019
Messages
90
Points
8
Vinashak.1998.720p.DVD.Rip.X264.AC-3.5.1 [DrC]




Source : Untouched [email protected] Bro Thanks

Format : Matroska
Format version : Version 2
File size : 2.20 GiB
Duration : 2 h 38 min
Overall bit rate : 1 989 kb/s
Video
ID : 1
Format : AVC
Format/Info : Advanced Video Codec
Format profile : [email protected]
Format settings : CABAC / 4 Ref Frames
Format settings, CABAC : Yes
Format settings, Reference : 4 frames
Codec ID : V_MPEG4/ISO/AVC
Duration : 2 h 38 min
Bit rate : 1 533 kb/s
Width : 1 280 pixels
Height : 544 pixels
Display aspect ratio : 2.35:1
Frame rate mode : Constant
Frame rate : 23.976 (24000/1001) FPS
Color space : YUV
Chroma subsampling : 4:2:0
Bit depth : 8 bits
Scan type : Progressive
Bits/(Pixel*Frame) : 0.092
Stream size : 1.71 GiB (77%)
Title : [email protected]
Audio
ID : 2
Format : AC-3
Format/Info : Audio Coding 3
Commercial name : Dolby Digital
Codec ID : A_AC3
Duration : 2 h 38 min
Bit rate mode : Constant
Bit rate : 448 kb/s
Channel(s) : 5 channels
Channel layout : L R C Ls Rs
Sampling rate : 48.0 kHz
Frame rate : 31.250 FPS (1536 SPF)
Bit depth : 16 bits
Compression mode : Lossy
Stream size : 508 MiB (23%)
Title : [email protected]
Language : Hindi
Service kind : Complete Main
Default : Yes
Forced : No
















 
Top