What's new
Welcome

Join us now to get access to all our features. Once registered and logged in, you will be able to create topics, post replies to existing threads, give reputation to your fellow members, get your own private messenger, and so, so much more. It's also quick and totally free, so what are you waiting for?

1080p Rip The Ring (2002) 1080p BluRay x264 ESubs Dual Audio [Hindi DD5.1 + English DD5.1]

dhara

New member
Joined
Jan 7, 2020
Messages
12
Points
1
Location
INDIA
The Ring (2002) 1080p BluRay x264 ESubs Dual Audio [Hindi DD5.1 + English DD5.1]



Complete name :The Ring (2002) 1080p BluRay x264 ESubs Dual Audio [Hindi DD5.1 + English DD5.1].mkv
Format : Matroska
Format version : Version 4
File size : 2.71 GiB
Duration : 1 h 55 min
Overall bit rate : 3 365 kb/s

Video
ID : 1
Format : AVC
Format/Info : Advanced Video Codec
Format profile : [email protected]
Format settings : CABAC / 4 Ref Frames
Format settings, CABAC : Yes
Format settings, Reference frames : 4 frames
Codec ID : V_MPEG4/ISO/AVC
Duration : 1 h 55 min
Bit rate : 2 500 kb/s
Width : 1 920 pixels
Height : 1 040 pixels
Display aspect ratio : 1.85:1
Frame rate mode : Constant
Frame rate : 23.976 (23976/1000) FPS
Color space : YUV

Audio #1
ID : 2
Format : E-AC-3
Format/Info : Enhanced AC-3
Commercial name : Dolby Digital Plus
Codec ID : A_EAC3
Duration : 1 h 55 min
Bit rate mode : Constant
Bit rate : 640 kb/s
Channel(s) : 6 channels
Channel layout : L R C LFE Ls Rs
Sampling rate : 48.0 kHz
Frame rate : 31.250 FPS (1536 SPF)
Compression mode : Lossy
Delay relative to video : 957 ms
Stream size : 528 MiB (19%)
Language : Hindi

Audio #2
ID : 3
Format : AAC LC
Format/Info : Advanced Audio Codec Low Complexity
Codec ID : A_AAC-2
Duration : 1 h 55 min
Bit rate : 224 kb/s
Channel(s) : 6 channels
Channel layout : C L R Ls Rs LFE
Sampling rate : 48.0 kHz
Frame rate : 46.875 FPS (1024 SPF)
Compression mode : Lossy
Delay relative to video : -43 ms
Stream size : 185 MiB (7%)
Language : English

Text
ID : 4
Format : UTF-8
Codec ID : S_TEXT/UTF8
Codec ID/Info : UTF-8 Plain Text
Duration : 1 h 46 min
Bit rate : 31 b/s
Count of elements : 884
Stream size : 24.8 KiB (0%)
Language : English


DOWNLOAD





 
Top