What's new
Welcome

Join us now to get access to all our features. Once registered and logged in, you will be able to create topics, post replies to existing threads, give reputation to your fellow members, get your own private messenger, and so, so much more. It's also quick and totally free, so what are you waiting for?

1080p Rip TERMINATOR DARK FATE 2019.1080p.BLURAY.x264 AC3 5.1 DTS 5.1 ENGLISH DHARA

dhara

New member
Joined
Jan 7, 2020
Messages
12
Points
1
Location
INDIA
TERMINATOR DARK FATE 2019.1080p.BLURAY.x264 AC3 5.1 DTS 5.1 ENGLISH DHARA



-MEDIA INFO-

TERMINATOR DARK FATE-2019.1080p.BLURAY.x264-.MKV
Format : Matroska
Format version : Version 4
File size : 10.1 GiB
Duration : 2 h 8 min
VIDEO
ID : 1
Format : AVC
Format/Info : Advanced Video Codec
Codec ID : V_MPEG4/ISO/AVC
Duration : 2 h 8 min
Bit rate : 9 134 kb/s
Width : 1 920 pixels
Height : 808 pixels
Display aspect ratio : 2.40:1
Frame rate mode : Constant
Frame rate : 23.976 (24000/1001) FPS
AUDIO #1
ID : 2
Format : AC-3
Format/Info : Audio Coding 3
Commercial name : Dolby Digital
Codec ID : A_AC3
Duration : 2 h 8 min
Bit rate mode : Constant
Bit rate : 640 kb/s
Channel(s) : 6 channels
Channel layout : L R C LFE Ls Rs
Sampling rate : 48.0 kHz
Frame rate : 31.250 FPS (1536 SPF)
Compression mode : Lossy
Stream size : 586 MiB (6%)
Language : English
AUDIO #2
ID : 3
Format : DTS
Format/Info : Digital Theater Systems
Codec ID : A_DTS
Duration : 2 h 8 min
Bit rate mode : Constant
Bit rate : 1 510 kb/s
Channel(s) : 6 channels
Channel layout : C L R Ls Rs LFE
Sampling rate : 48.0 kHz
Frame rate : 93.750 FPS (512 SPF)
Bit depth : 24 bits
Compression mode : Lossy
Stream size : 1.35 GiB (13%)
TEXT #1
ID : 4
Format : VobSub
Muxing mode : zlib
Codec ID : S_VOBSUB
Codec ID/Info : Picture based subtitle format used on DVDs
Duration : 1 h 57 min
Bit rate : 3 067 b/s
Count of elements : 1049
Stream size : 2.58 MiB (0%)
Language : English
TEXT #2
ID : 5
Format : VobSub
Muxing mode : zlib
Codec ID : S_VOBSUB
Codec ID/Info : Picture based subtitle format used on DVDs
Duration : 1 h 57 min
Bit rate : 4 234 b/s
Count of elements : 1388
Stream size : 3.56 MiB (0%)
Language : English




 
Top