What's new
Welcome

Join us now to get access to all our features. Once registered and logged in, you will be able to create topics, post replies to existing threads, give reputation to your fellow members, get your own private messenger, and so, so much more. It's also quick and totally free, so what are you waiting for?

720p Rip TERA SURRUR (2016) 720P DOLBY DIGITAL 5.1 DHARA

dhara

New member
Joined
Jan 7, 2020
Messages
12
Points
1
Location
INDIA
TERA SURRUR (2016) 720P DOLBY DIGITAL 5.1 DHARA


-INFO-
TERA SURRUR
Format : Matroska
Format version : Version 4
File size : 1.17 GiB
Duration : 1 h 39 min
Overall bit rate : 1 676 kb/s
VIDEO
ID : 1
Format : AVC
Format/Info : Advanced Video Codec
Format profile : [email protected]
Format settings : CABAC / 4 Ref Frames
Format settings, CABAC : Yes
Format settings, Reference frames : 4 frames
Codec ID : V_MPEG4/ISO/AVC
Duration : 1 h 39 min
Bit rate : 1 002 kb/s
Width : 1 280 pixels
Height : 544 pixels
Display aspect ratio : 2.35:1
Frame rate mode : Constant
Frame rate : 23.976 (24000/1001) FPS
Color space : YUV
Stream size : 716 MiB (60%)
AUDIO
ID : 2
Format : AC-3
Format/Info : Audio Coding 3
Commercial name : Dolby Digital
Codec ID : A_AC3
Duration : 1 h 39 min
Bit rate mode : Constant
Bit rate : 640 kb/s
Channel(s) : 6 channels
Channel layout : L R C LFE Ls Rs
Sampling rate : 48.0 kHz
Frame rate : 31.250 FPS (1536 SPF)
Compression mode : Lossy
Stream size : 457 MiB (38%)
Title : Surround
Language : Hindi



 
Last edited:
Top