What's new
Welcome

Join us now to get access to all our features. Once registered and logged in, you will be able to create topics, post replies to existing threads, give reputation to your fellow members, get your own private messenger, and so, so much more. It's also quick and totally free, so what are you waiting for?

720p Rip Speed Racer (2008) 720p HDRip Dual Audio [Hindi+English]SeedUp

MrSky

New member
Joined
May 17, 2020
Messages
20
Points
1





Format : Matroska
Format version : Version 4
File size : 1.24 GiB
Duration : 2 h 15 min
Overall bit rate : 1 314 kb/s
Movie name : Speed Racer (2008) 720p HDRip Dual Audio [Hindi+English]SeedUp
Encoded date : UTC 2019-08-18 13:40:28



Video
ID : 1
Format : AVC
Format/Info : Advanced Video Codec
Duration : 2 h 15 min
Bit rate : 1 000 kb/s
Width : 1 280 pixels
Height : 528 pixels
Display aspect ratio : 2.35:1
Frame rate mode : Constant
Frame rate : 23.976 (24000/1001) FPS
Color space : YUV
Chroma subsampling : 4:2:0
Bit depth : 8 bits
Scan type : Progressive
Bits/(Pixel*Frame) : 0.062
Title : SeedUp
Writing library : x264 core 120
Language : English
Default : Yes
Forced : No

Audio #1
ID : 2
Codec ID : A_AAC-2
Duration : 2 h 9 min
Bit rate : 160 kb/s
Channel(s) : 2 channels
Channel layout : L R
Sampling rate : 48.0 kHz
Frame rate : 46.875 FPS (1024 SPF)
Compression mode : Lossy
Stream size : 148 MiB (12%)
Title : SeedUp
Language : Hindi
Default : Yes
Forced : No

Audio #2
ID : 3
Format : AAC LC
Codec ID : A_AAC-2
Duration : 2 h 15 min
Bit rate : 160 kb/s
Channel(s) : 2 channels
Channel layout : L R
Sampling rate : 48.0 kHz
Frame rate : 46.875 FPS (1024 SPF)
Compression mode : Lossy
Stream size : 154 MiB (12%)
Title : SeedUp
Language : English
Default : No
Forced : No


'


 
Top